GloDLS.to - Download Movies, TV, Games and Other Torrents Free RSS 2.0enUnblock GloDLS.to Proxy - Download Movies, TV, Games and Other Torrents FreeGloDLS.to - Download Movies, TV, Games and Other Torrents Free RSS Feed//glodls-to.prox1.infoCopyright GloDLS.to - Download Movies, TV, Games and Other Torrents FreeSat, 19 Jan 2019 02:58:16 +0000 MacGyver.2016.S03E13.720p.HDTV.x264-AVS //glodls-to.prox1.info/torrent.php?id=9268495 //glodls-to.prox1.info/torrent.php?id=9268495 Sat, 19 Jan 2019 02:55:57 +0000 TV
[url=https://imagecurl.com/viewer.php?file=38091880037014672596.jpg][img]https://imagecurl.com/images/38091880037014672596.jpg[/img][/url]



MacGyver.2016.S03E13.720p.HDTV.x264-AVS

date: Fri Jan 18 2019 ]]>
Second Act 2018 720p HDCAM LLG //glodls-to.prox1.info/torrent.php?id=9268491 //glodls-to.prox1.info/torrent.php?id=9268491 Sat, 19 Jan 2019 02:53:38 +0000 Movies [center]
[b]

******************************Thumbnail:**********************

[url=https://allpagal.info/5211.htm][img]https://allpagal.info/005211.png[/img][/url]

******************************Screenshots:********************

[url=https://allpagal.info/5211.htm]Screenshot 1 [/url]

[url=https://allpagal.info/5212.htm]Screenshot 2 [/url]

[url=https://allpagal.info/5213.htm]Screenshot 3 [/url]

[url=https://allpagal.info/5214.htm]Screenshot 4 [/url]

[url=https://allpagal.info/5215.htm]Screenshot 5 [/url]

[url=https://allpagal.info/5216.htm]Screenshot 6 [/url]

[url=https://allpagal.info/5217.htm]Screenshot 7 [/url]

[url=https://allpagal.info/5218.htm]Screenshot 8 [/url]

[url=https://allpagal.info/5219.htm]Screenshot 9 [/url]

[url=https://allpagal.info/5220.htm]Screenshot 0 [/url]


******************************************************

Second Act 2018 720p HDCAM.LLG.mp4
Format : MPEG-4
Format profile : Base Media
Codec ID : isom (isom/iso2/avc1/mp41)
File size : 1.48 GiB
Duration : 1 h 36 min
Overall bit rate mode : Variable
Overall bit rate : 2 196 kb/s


Video
ID : 1
Format : AVC
Format/Info : Advanced Video Codec
Format profile : Main@L3.1
Format settings : CABAC / 1 Ref Frames
Format settings, CABAC : Yes
Format settings, RefFrames : 1 frame
Codec ID : avc1
Codec ID/Info : Advanced Video Coding
Duration : 1 h 36 min
Bit rate mode : Variable
Bit rate : 2 001 kb/s
Maximum bit rate : 6 000 kb/s
Width : 1 280 pixels
Height : 536 pixels
Display aspect ratio : 2.40:1
Frame rate mode : Constant
Frame rate : 29.970 (29970/1000) FPS
Original frame rate : 29.970 (30000/1001) FPS
Color space : YUV
Chroma subsampling : 4:2:0
Bit depth : 8 bits
Scan type : Progressive
Bits/(Pixel*Frame) : 0.097
Stream size : 1.35 GiB (91%)


Audio
ID : 2
Format : AC-3
Format/Info : Audio Coding 3
Commercial name : Dolby Digital
Codec ID : ac-3
Duration : 1 h 36 min
Bit rate mode : Constant
Bit rate : 192 kb/s
Channel(s) : 2 channels
Channel layout : L R
Sampling rate : 48.0 kHz
Frame rate : 31.250 FPS (1536 SPF)
Bit depth : 16 bits
Compression mode : Lossy
Stream size : 132 MiB (9%)
Service kind : Complete Main
Default : Yes
Alternate group : 1





********************************************************
[/b]
[/center]
[/quote] ]]>
Gold.Rush.S09E14.WEBRip.x264-TBS //glodls-to.prox1.info/torrent.php?id=9268483 //glodls-to.prox1.info/torrent.php?id=9268483 Sat, 19 Jan 2019 02:50:53 +0000 TV
[url=https://imagecurl.com/viewer.php?file=11400855211596951966.jpg][img]https://imagecurl.com/images/11400855211596951966.jpg[/img][/url]



Gold.Rush.S09E14.WEBRip.x264-TBS

01/19/2019

encode for ivtc ]]>
Prime.of.Your.Life.2010.720p.WEBRip.X264-INFLATE //glodls-to.prox1.info/torrent.php?id=9268482 //glodls-to.prox1.info/torrent.php?id=9268482 Sat, 19 Jan 2019 02:50:27 +0000 Movies
[url=https://imagecurl.com/viewer.php?file=09883516564415986830.jpg][img]https://imagecurl.com/images/09883516564415986830.jpg[/img][/url]

INFLATE decompresses:

Prime.of.Your.Life.2010.720p.WEBRip.X264-INFLATE



Release Date : 2019-01-19

Source : Amazon

URL : https://www.imdb.com/title/tt1016226



Duration : 01:32:46.728000

Video : X264 (CRF 18.0, 8 bit, 4:2:0)

Resolution : 1280x570 (2.25:1) @ 23.976 (24000/1001) FPS

Audio : AAC LC @ 125 kb/s (2.0)

Language : English

Subtitles : English

Size : 1,773.375 MB (1,859,518,326 bytes) ]]>
Prime.of.Your.Life.2010.1080p.WEBRip.X264-INFLATE //glodls-to.prox1.info/torrent.php?id=9268481 //glodls-to.prox1.info/torrent.php?id=9268481 Sat, 19 Jan 2019 02:50:23 +0000 Movies
[url=https://imagecurl.com/viewer.php?file=31494658796129798979.jpg][img]https://imagecurl.com/images/31494658796129798979.jpg[/img][/url]

INFLATE decompresses:

Prime.of.Your.Life.2010.1080p.WEBRip.X264-INFLATE



Release Date : 2019-01-19

Source : Amazon

URL : https://www.imdb.com/title/tt1016226



Duration : 01:32:46.728000

Video : X264 (CRF 17.1, 8 bit, 4:2:0)

Resolution : 1920x856 (2.25:1) @ 23.976 (24000/1001) FPS

Audio : AAC LC @ 125 kb/s (2.0)

Language : English

Subtitles : English

Size : 4,268.744 MB (4,476,103,030 bytes)

Notes : CRF+0.1 to stay below source. ]]>
Gold.Rush.S09E14.WEBRip.x264-TBS[TGx] //glodls-to.prox1.info/torrent.php?id=9268469 //glodls-to.prox1.info/torrent.php?id=9268469 Sat, 19 Jan 2019 02:42:43 +0000 TV
[b]Gold.Rush.S09E14.WEBRip.x264-TBS[TGx][/b]
[url]https://www.imdb.com/title/tt1800864[/url]


Upload provided by TorrentGalaxy
Visit us @ [url]https://torrentgalaxy.org[/url]


[b]SERIES INFO[/b]
[b]Genre[/b]: Reality
[b]Stars[/b]: Todd Hoffman, Jack Hoffman, James Harness, Dave Turin, Jim Thurber, Chris Doumitt, Greg Remsburg, Fred Hurt, Tony Beets, Parker Schnabel
[b]Series Plot[/b]: The series follows the gold mining efforts of various family-run mining companies mostly in the Klondike region of Dawson City, Yukon, Canada.

-----------------------------------------------------------------------------------

[b]EPISODE INFO[/b]
[b]Title[/b]: Old School Heroes
[b]Airdate[/b]: 2019-01-18
[b]Episode plot[/b]: Parker leaves Brennan in charge of one section of the mine, with mixed results- Rick damages his water pipe with some careless excavation work.

-----------------------------------------------------------------------------------

[b]SCREENSHOTS[/b]
(Click to enlarge)
[url=https://imgmak.com/image/KUAf][img]https://imgmak.com/images/2019/01/19/HappyRoboto14888.th.jpg[/img][/url] [url=https://imgmak.com/image/KUAE][img]https://imgmak.com/images/2019/01/19/HappyRoboto32310.th.jpg[/img][/url] [url=https://imgmak.com/image/KUAh][img]https://imgmak.com/images/2019/01/19/HappyRoboto20532.th.jpg[/img][/url] [url=https://imgmak.com/image/KUAl][img]https://imgmak.com/images/2019/01/19/HappyRoboto29220.th.jpg[/img][/url] [url=https://imgmak.com/image/KUAV][img]https://imgmak.com/images/2019/01/19/HappyRoboto9097.th.jpg[/img][/url] [url=https://imgmak.com/image/KUAe][img]https://imgmak.com/images/2019/01/19/HappyRoboto11474.th.jpg[/img][/url]

-----------------------------------------------------------------------------------

[b]MEDIAINFO[/b]
Container = Matroska (mkv)
Duration = 00:41:59.095
Filesize = 534 MiB
--ViDEO
Codec info = AVC High@L3.1 | V_MPEG4/ISO/AVC
Resolution = 720x404
Display AR = 1.778 | 16:9
Bitrate = 1 649 kb/s
Framerate = CFR 23.976
Color space = YUV
Chroma subsampling = 4:2:0
Encoder = x264 - core 157 r2935 545de2f
--AUDiO
Codec info = AAC HE-AAC / LC | A_AAC
Channels = 2
Bitrate = 127 kb/s
Samplerate = 48.0 kHz / 24.0 kHz
Language = English ]]>
Gold.Rush.S09E14.720p.WEBRip.x264-TBS //glodls-to.prox1.info/torrent.php?id=9268461 //glodls-to.prox1.info/torrent.php?id=9268461 Sat, 19 Jan 2019 02:40:17 +0000 TV
[url=https://imagecurl.com/viewer.php?file=13662580173840626764.jpg][img]https://imagecurl.com/images/13662580173840626764.jpg[/img][/url]



Gold.Rush.S09E14.720p.WEBRip.x264-TBS

01/19/2019

encode for ivtc ]]>
Gold.Rush.S09E14.720p.WEBRip.x264-TBS[ettv] //glodls-to.prox1.info/torrent.php?id=9268460 //glodls-to.prox1.info/torrent.php?id=9268460 Sat, 19 Jan 2019 02:39:17 +0000 TV Et High-Definition TV Shows


[url]https://www.ettv.be/home/[/url]

Gold.Rush.S09E14.720p.WEBRip.x264-TBS


[Format]: Matroska
[Duration]: 41mn 59s
[Resolution]: 1 280 x 720 pixels
[Display aspect ratio]: 16:9
[Frame rate mode]: Constant
[Frame rate]: 23.976 fps


[color=green][b]#EtHD -> To avoid fakes, ALWAYS check that the torrent was added by EtHD[/b][/color]




[color=green][b]To keep us going Support us by donating Bitcoin: 1KsLJXUQzuYnuFZpNp4zsvEXaarKa85ADD[/b][/color]

[b]Screens...[/b]

[url]https://extraimage.net/image/c5oO[/url]
[url]https://extraimage.net/image/c5oq[/url]
[url]https://extraimage.net/image/c5oy[/url]
[url]https://extraimage.net/image/c5oL[/url]
[url][/url]
[url][/url]
]]>
Gold.Rush.S09E14.WEBRip.x264-TBS[ettv] //glodls-to.prox1.info/torrent.php?id=9268459 //glodls-to.prox1.info/torrent.php?id=9268459 Sat, 19 Jan 2019 02:39:11 +0000 TV Et TV Shows


[url]https://www.ettv.be/home/[/url]

Gold.Rush.S09E14.WEBRip.x264-TBS


[Format]: Matroska
[Duration]: 41mn 59s
[Resolution]: 720 x 404 pixels
[Display aspect ratio]: 16:9
[Frame rate mode]: Constant
[Frame rate]: 23.976 fps


[color=green][b]#ettv -> To avoid fakes, ALWAYS check that the torrent was added by ettv[/b][/color]




[color=green][b]To keep us going Support us by donating Bitcoin: 1KsLJXUQzuYnuFZpNp4zsvEXaarKa85ADD[/b][/color]

[b]Screens...[/b]

[url]https://extraimage.net/image/c5oS[/url]
[url][/url]
[url][/url]
[url][/url]
[url][/url]
[url][/url]
]]>
Dynasty.2017.S02E10.720p.HDTV.x265-MiNX[TGx] //glodls-to.prox1.info/torrent.php?id=9268456 //glodls-to.prox1.info/torrent.php?id=9268456 Sat, 19 Jan 2019 02:34:56 +0000 TV
[b]Dynasty.2017.S02E10.720p.HDTV.x265-MiNX[TGx][/b]
[url]https://www.imdb.com/title/tt6128300[/url]


Upload provided by TorrentGalaxy
Visit us @ [url]https://torrentgalaxy.org[/url]


[b]SERIES INFO[/b]
[b]Genre[/b]: Drama Soap
[b]Stars[/b]: Alan Dale, Nathalie Kelley, Elizabeth Gillies, Sam Adegoke, Robert Christopher Riley, Rafael de La Fuente, James Mackay, Grant Show, Wakeema Hollis, Nicollette Sheridan
[b]Series Plot[/b]: The reboot follows two of America’s wealthiest families, the Carringtons and the Colbys, as they feud for control over their fortune and their children. The series will focus on Fallon Carrington, the daughter of billionaire Blake Carrington, and her soon-to-be stepmother, Cristal, a Hispanic woman marrying into this WASP family and America’s most powerful class.

-----------------------------------------------------------------------------------

[b]EPISODE INFO[/b]
[b]Title[/b]: A Champagne Mood
[b]Airdate[/b]: 2019-01-18
[b]Episode plot[/b]: In the wake of a horrific accident, Culhane desperately needs Fallon’s help and protection, while she needs to process the sheer weight of his lies. Meanwhile, as Blake shows no shame in using family to promote his own self-interest, Cristal is reluctant to reveal a big development.

-----------------------------------------------------------------------------------

[b]SCREENSHOTS[/b]
(Click to enlarge)
[url=https://imgmak.com/image/KUA9][img]https://imgmak.com/images/2019/01/19/HappyRoboto27912.th.jpg[/img][/url] [url=https://imgmak.com/image/KUAM][img]https://imgmak.com/images/2019/01/19/HappyRoboto6536.th.jpg[/img][/url] [url=https://imgmak.com/image/KUAO][img]https://imgmak.com/images/2019/01/19/HappyRoboto3937.th.jpg[/img][/url] [url=https://imgmak.com/image/KUAP][img]https://imgmak.com/images/2019/01/19/HappyRoboto14852.th.jpg[/img][/url] [url=https://imgmak.com/image/KUAY][img]https://imgmak.com/images/2019/01/19/HappyRoboto28807.th.jpg[/img][/url] [url=https://imgmak.com/image/KUA0][img]https://imgmak.com/images/2019/01/19/HappyRoboto25010.th.jpg[/img][/url]

-----------------------------------------------------------------------------------

[b]MEDIAINFO[/b]
Container = Matroska (mkv)
Duration = 00:41:51.614
Filesize = 184 MiB
--ViDEO
Codec info = HEVC Main@L3.1@Main | V_MPEGH/ISO/HEVC
Resolution = 1280x720
Display AR = 1.778 | 16:9
Bitrate =
Framerate = VFR
Color space = YUV
Chroma subsampling = 4:2:0
Encoder = x265 - 0.0:[Linux][GCC 6.3.0][64 bit] 8bit+10bit+12bit
--AUDiO
Codec info = AAC LC | A_AAC
Channels = 2
Bitrate =
Samplerate = 48.0 kHz
Language = English ]]>
Blindspot.S04E10.XviD-AFG[TGx] //glodls-to.prox1.info/torrent.php?id=9268452 //glodls-to.prox1.info/torrent.php?id=9268452 Sat, 19 Jan 2019 02:28:05 +0000 TV
[b]Blindspot.S04E10.XviD-AFG[TGx][/b]
[url]https://www.imdb.com/title/tt4474344[/url]


Upload provided by TorrentGalaxy
Visit us @ [url]https://torrentgalaxy.org[/url]


[b]SERIES INFO[/b]
[b]Genre[/b]: Action Crime Drama Mystery
[b]Stars[/b]: Jaimie Alexander, Sullivan Stapleton, Audrey Esparza, Rob Brown, Marianne Jean-Baptiste, Ukweli Roach, Ashley Johnson, Archie Panjabi, Luke Mitchell, Michelle Hurd
[b]Series Plot[/b]: A mysterious tattooed woman who is found naked inside a travel bag in Times Square by the FBI, with no recollection of her own past or her own identity. They discover that her tattoos contain clues to crimes they will have to solve.

-----------------------------------------------------------------------------------

[b]EPISODE INFO[/b]
[b]Title[/b]: The Big Reveal
[b]Airdate[/b]: 2019-01-18
[b]Episode plot[/b]: Reade confronts Zapata, while the team follows a lead to a potential cure for Jane.

-----------------------------------------------------------------------------------

[b]SCREENSHOTS[/b]
(Click to enlarge)
[url=https://imgmak.com/image/KUA5][img]https://imgmak.com/images/2019/01/19/HappyRoboto5708.th.jpg[/img][/url] [url=https://imgmak.com/image/KUA1][img]https://imgmak.com/images/2019/01/19/HappyRoboto15629.th.jpg[/img][/url] [url=https://imgmak.com/image/KUAU][img]https://imgmak.com/images/2019/01/19/HappyRoboto7453.th.jpg[/img][/url] [url=https://imgmak.com/image/KUA3][img]https://imgmak.com/images/2019/01/19/HappyRoboto23655.th.jpg[/img][/url] [url=https://imgmak.com/image/KUAG][img]https://imgmak.com/images/2019/01/19/HappyRoboto8068.th.jpg[/img][/url] [url=https://imgmak.com/image/KUAH][img]https://imgmak.com/images/2019/01/19/HappyRoboto30533.th.jpg[/img][/url]

-----------------------------------------------------------------------------------

[b]MEDIAINFO[/b]
Container = AVI (avi)
Duration = 00:42:07.859
Filesize = 429 MiB
--ViDEO
Codec info = xvid | xvid
Resolution = 640x360
Display AR = 1.788 | 16:9
Bitrate = 1 284 kb/s
Framerate = 23.976
Color space =
Chroma subsampling =
Encoder =
--AUDiO
Codec info = MPEG Audio Layer 3 | 55
Channels = 2
Bitrate = CBR 128 kb/s
Samplerate = 48.0 kHz
Language = English ]]>
MacGyver.2016.S03E13.XviD-AFG[TGx] //glodls-to.prox1.info/torrent.php?id=9268440 //glodls-to.prox1.info/torrent.php?id=9268440 Sat, 19 Jan 2019 02:24:42 +0000 TV
[b]MacGyver.2016.S03E13.XviD-AFG[TGx][/b]
[url]https://www.imdb.com/title/tt1399045[/url]


Upload provided by TorrentGalaxy
Visit us @ [url]https://torrentgalaxy.org[/url]


[b]SERIES INFO[/b]
[b]Genre[/b]: Action Adventure Drama
[b]Stars[/b]: Lucas Till, George Eads, Justin Hires, Sandrine Holt, Tristin Mays, Meredith Eaton, Isabel Lucas
[b]Series Plot[/b]: Young Angus "Mac" MacGyver works for a clandestine organization within the U.S. government, relying on his unconventional problem-solving skills to save lives.

-----------------------------------------------------------------------------------

[b]EPISODE INFO[/b]
[b]Title[/b]: Wilderness + Training + Survival
[b]Airdate[/b]: 2019-01-18
[b]Episode plot[/b]: null

-----------------------------------------------------------------------------------

[b]SCREENSHOTS[/b]
(Click to enlarge)
[url=https://imgmak.com/image/KUAb][img]https://imgmak.com/images/2019/01/19/HappyRoboto15906.th.jpg[/img][/url] [url=https://imgmak.com/image/KUAx][img]https://imgmak.com/images/2019/01/19/HappyRoboto29694.th.jpg[/img][/url] [url=https://imgmak.com/image/KUAz][img]https://imgmak.com/images/2019/01/19/HappyRoboto17315.th.jpg[/img][/url] [url=https://imgmak.com/image/KUA7][img]https://imgmak.com/images/2019/01/19/HappyRoboto31699.th.jpg[/img][/url] [url=https://imgmak.com/image/KUAk][img]https://imgmak.com/images/2019/01/19/HappyRoboto30151.th.jpg[/img][/url] [url=https://imgmak.com/image/KUAm][img]https://imgmak.com/images/2019/01/19/HappyRoboto16736.th.jpg[/img][/url]

-----------------------------------------------------------------------------------

[b]MEDIAINFO[/b]
Container = AVI (avi)
Duration = 00:42:34.218
Filesize = 713 MiB
--ViDEO
Codec info = xvid | xvid
Resolution = 640x360
Display AR = 1.778 | 16:9
Bitrate = 2 201 kb/s
Framerate = 23.976
Color space =
Chroma subsampling =
Encoder =
--AUDiO
Codec info = MPEG Audio Layer 3 | 55
Channels = 2
Bitrate = CBR 128 kb/s
Samplerate = 48.0 kHz
Language = English ]]>
MacGyver.2016.S03E13.HDTV.x264-SVA //glodls-to.prox1.info/torrent.php?id=9268439 //glodls-to.prox1.info/torrent.php?id=9268439 Sat, 19 Jan 2019 02:23:53 +0000 TV
[url=https://imagecurl.com/viewer.php?file=80716356349815080429.jpg][img]https://imagecurl.com/images/80716356349815080429.jpg[/img][/url]



MacGyver.2016.S03E13.HDTV.x264-SVA

date: Fri Jan 18 2019 ]]>
Backwoods.2008.720p.BluRay.H264.AAC //glodls-to.prox1.info/torrent.php?id=9268438 //glodls-to.prox1.info/torrent.php?id=9268438 Sat, 19 Jan 2019 02:23:31 +0000 Movies
[url=https://imagecurl.com/viewer.php?file=88863859893686139389.png][img]https://imagecurl.com/images/88863859893686139389.png[/img][/url]

[url=https://imagecurl.com/viewer.php?file=57731087126406510981.png][img]https://imagecurl.com/images/57731087126406510981.png[/img][/url] ]]>
Dynasty.2017.S02E10.HDTV.x264-SVA //glodls-to.prox1.info/torrent.php?id=9268436 //glodls-to.prox1.info/torrent.php?id=9268436 Sat, 19 Jan 2019 02:22:34 +0000 TV
[url=https://imagecurl.com/viewer.php?file=62580770400492489078.jpg][img]https://imagecurl.com/images/62580770400492489078.jpg[/img][/url]



Dynasty.2017.S02E10.HDTV.x264-SVA

date: Fri Jan 18 2019 ]]>
Dynasty.2017.S02E10.720p.HDTV.x264-SVA //glodls-to.prox1.info/torrent.php?id=9268435 //glodls-to.prox1.info/torrent.php?id=9268435 Sat, 19 Jan 2019 02:21:57 +0000 TV
[url=https://imagecurl.com/viewer.php?file=98180785807871354754.jpg][img]https://imagecurl.com/images/98180785807871354754.jpg[/img][/url]



Dynasty.2017.S02E10.720p.HDTV.x264-SVA

date: Fri Jan 18 2019 ]]>
Hells.Kitchen.US.S18E12.WEB.x264-TBS //glodls-to.prox1.info/torrent.php?id=9268434 //glodls-to.prox1.info/torrent.php?id=9268434 Sat, 19 Jan 2019 02:21:47 +0000 TV
[url=https://imagecurl.com/viewer.php?file=28051438888485217287.jpg][img]https://imagecurl.com/images/28051438888485217287.jpg[/img][/url]



Hells.Kitchen.US.S18E12.WEB.x264-TBS

01/19/2019 ]]>
Blindspot.S04E10.720p.HDTV.x264-AVS //glodls-to.prox1.info/torrent.php?id=9268431 //glodls-to.prox1.info/torrent.php?id=9268431 Sat, 19 Jan 2019 02:20:59 +0000 TV
[url=https://imagecurl.com/viewer.php?file=16764839119939912361.jpg][img]https://imagecurl.com/images/16764839119939912361.jpg[/img][/url]



Blindspot.S04E10.720p.HDTV.x264-AVS

date: Fri Jan 18 2019 ]]>
Blindspot.S04E10.HDTV.x264-SVA //glodls-to.prox1.info/torrent.php?id=9268430 //glodls-to.prox1.info/torrent.php?id=9268430 Sat, 19 Jan 2019 02:20:53 +0000 TV
[url=https://imagecurl.com/viewer.php?file=09877605731652708269.jpg][img]https://imagecurl.com/images/09877605731652708269.jpg[/img][/url]



Blindspot.S04E10.HDTV.x264-SVA

date: Fri Jan 18 2019 ]]>
Hells.Kitchen.US.S18E12.1080p.WEB.x264-TBS //glodls-to.prox1.info/torrent.php?id=9268429 //glodls-to.prox1.info/torrent.php?id=9268429 Sat, 19 Jan 2019 02:20:42 +0000 TV
[url=https://imagecurl.com/viewer.php?file=39978534053539319257.jpg][img]https://imagecurl.com/images/39978534053539319257.jpg[/img][/url]



Hells.Kitchen.US.S18E12.1080p.WEB.x264-TBS

01/19/2019 ]]>
Forbidden.Ground.2013.720p.BluRay.H264.AAC //glodls-to.prox1.info/torrent.php?id=9268428 //glodls-to.prox1.info/torrent.php?id=9268428 Sat, 19 Jan 2019 02:20:27 +0000 Movies
[url=https://imagecurl.com/viewer.php?file=13278773239294741137.png][img]https://imagecurl.com/images/13278773239294741137.png[/img][/url]

[url=https://imagecurl.com/viewer.php?file=62386441733439228648.png][img]https://imagecurl.com/images/62386441733439228648.png[/img][/url] ]]>
Dynasty.2017.S02E10.XviD-AFG[TGx] //glodls-to.prox1.info/torrent.php?id=9268427 //glodls-to.prox1.info/torrent.php?id=9268427 Sat, 19 Jan 2019 02:19:20 +0000 TV
[b]Dynasty.2017.S02E10.XviD-AFG[TGx][/b]
[url]https://www.imdb.com/title/tt6128300[/url]


Upload provided by TorrentGalaxy
Visit us @ [url]https://torrentgalaxy.org[/url]


[b]SERIES INFO[/b]
[b]Genre[/b]: Drama Soap
[b]Stars[/b]: Alan Dale, Nathalie Kelley, Elizabeth Gillies, Sam Adegoke, Robert Christopher Riley, Rafael de La Fuente, James Mackay, Grant Show, Wakeema Hollis, Nicollette Sheridan
[b]Series Plot[/b]: The reboot follows two of America’s wealthiest families, the Carringtons and the Colbys, as they feud for control over their fortune and their children. The series will focus on Fallon Carrington, the daughter of billionaire Blake Carrington, and her soon-to-be stepmother, Cristal, a Hispanic woman marrying into this WASP family and America’s most powerful class.

-----------------------------------------------------------------------------------

[b]EPISODE INFO[/b]
[b]Title[/b]: A Champagne Mood
[b]Airdate[/b]: 2019-01-18
[b]Episode plot[/b]: In the wake of a horrific accident, Culhane desperately needs Fallon’s help and protection, while she needs to process the sheer weight of his lies. Meanwhile, as Blake shows no shame in using family to promote his own self-interest, Cristal is reluctant to reveal a big development.

-----------------------------------------------------------------------------------

[b]SCREENSHOTS[/b]
(Click to enlarge)
[url=https://imgmak.com/image/KU0X][img]https://imgmak.com/images/2019/01/19/HappyRoboto30864.th.jpg[/img][/url] [url=https://imgmak.com/image/KUAC][img]https://imgmak.com/images/2019/01/19/HappyRoboto32040.th.jpg[/img][/url] [url=https://imgmak.com/image/KUAK][img]https://imgmak.com/images/2019/01/19/HappyRoboto11481.th.jpg[/img][/url] [url=https://imgmak.com/image/KUAT][img]https://imgmak.com/images/2019/01/19/HappyRoboto30163.th.jpg[/img][/url] [url=https://imgmak.com/image/KUAa][img]https://imgmak.com/images/2019/01/19/HappyRoboto24330.th.jpg[/img][/url] [url=https://imgmak.com/image/KUAp][img]https://imgmak.com/images/2019/01/19/HappyRoboto10461.th.jpg[/img][/url]

-----------------------------------------------------------------------------------

[b]MEDIAINFO[/b]
Container = AVI (avi)
Duration = 00:41:51.634
Filesize = 334 MiB
--ViDEO
Codec info = xvid | xvid
Resolution = 640x360
Display AR = 1.778 | 16:9
Bitrate = 976 kb/s
Framerate = 23.976
Color space =
Chroma subsampling =
Encoder =
--AUDiO
Codec info = MPEG Audio Layer 3 | 55
Channels = 2
Bitrate = CBR 128 kb/s
Samplerate = 48.0 kHz
Language = English ]]>
Hells.Kitchen.US.S18E12.720p.WEB.x264-TBS //glodls-to.prox1.info/torrent.php?id=9268424 //glodls-to.prox1.info/torrent.php?id=9268424 Sat, 19 Jan 2019 02:17:08 +0000 TV
[url=https://imagecurl.com/viewer.php?file=01371686845263073377.jpg][img]https://imagecurl.com/images/01371686845263073377.jpg[/img][/url]



Hells.Kitchen.US.S18E12.720p.WEB.x264-TBS

01/19/2019 ]]>
Hells.Kitchen.US.S18E12.720p.WEB.x264-TBS[TGx] //glodls-to.prox1.info/torrent.php?id=9268422 //glodls-to.prox1.info/torrent.php?id=9268422 Sat, 19 Jan 2019 02:14:05 +0000 TV
[b]Hells.Kitchen.US.S18E12.720p.WEB.x264-TBS[TGx][/b]
[url]https://www.imdb.com/title/tt0437005[/url]


Upload provided by TorrentGalaxy
Visit us @ [url]https://torrentgalaxy.org[/url]


[b]SERIES INFO[/b]
[b]Genre[/b]: Food Game Show Reality
[b]Stars[/b]: Gordon Ramsay
[b]Series Plot[/b]: Hell's Kitchen (US) is an American reality television cooking competition (based on the British series of the same name) broadcast on Fox. It is hosted by celebrity chef Gordon Ramsay.

-----------------------------------------------------------------------------------

[b]EPISODE INFO[/b]
[b]Title[/b]: Break On Through
[b]Airdate[/b]: 2019-01-18
[b]Episode plot[/b]: Tension mounts when Chef Ramsay explains to the six remaining chefs that they will go through three extensive challenges to determine which five chefs receive a black jacket. Tune in to find out which chef will be sent home.

-----------------------------------------------------------------------------------

[b]SCREENSHOTS[/b]
(Click to enlarge)
[url=https://imgmak.com/image/KU0J][img]https://imgmak.com/images/2019/01/19/HappyRoboto12307.th.jpg[/img][/url] [url=https://imgmak.com/image/KU0W][img]https://imgmak.com/images/2019/01/19/HappyRoboto13261.th.jpg[/img][/url] [url=https://imgmak.com/image/KU0d][img]https://imgmak.com/images/2019/01/19/HappyRoboto7336.th.jpg[/img][/url] [url=https://imgmak.com/image/KU0s][img]https://imgmak.com/images/2019/01/19/HappyRoboto8735.th.jpg[/img][/url] [url=https://imgmak.com/image/KU04][img]https://imgmak.com/images/2019/01/19/HappyRoboto23305.th.jpg[/img][/url] [url=https://imgmak.com/image/KU08][img]https://imgmak.com/images/2019/01/19/HappyRoboto7061.th.jpg[/img][/url]

-----------------------------------------------------------------------------------

[b]MEDIAINFO[/b]
Container = Matroska (mkv)
Duration = 00:43:12.078
Filesize = 1 GiB
--ViDEO
Codec info = AVC High@L3.1 | V_MPEG4/ISO/AVC
Resolution = 1280x720
Display AR = 1.778 | 16:9
Bitrate = 3 360 kb/s
Framerate = CFR 29.970
Color space = YUV
Chroma subsampling = 4:2:0
Encoder = x264 - core 148 r2579M 73ae2d1
--AUDiO
Codec info = AAC HE-AAC / LC | A_AAC
Channels = 2
Bitrate = 127 kb/s
Samplerate = 48.0 kHz / 24.0 kHz
Language = English ]]>
Hells.Kitchen.US.S18E12.WEB.x264-TBS[TGx] //glodls-to.prox1.info/torrent.php?id=9268420 //glodls-to.prox1.info/torrent.php?id=9268420 Sat, 19 Jan 2019 02:12:20 +0000 TV
[b]Hells.Kitchen.US.S18E12.WEB.x264-TBS[TGx][/b]
[url]https://www.imdb.com/title/tt0437005[/url]


Upload provided by TorrentGalaxy
Visit us @ [url]https://torrentgalaxy.org[/url]


[b]SERIES INFO[/b]
[b]Genre[/b]: Food Game Show Reality
[b]Stars[/b]: Gordon Ramsay
[b]Series Plot[/b]: Hell's Kitchen (US) is an American reality television cooking competition (based on the British series of the same name) broadcast on Fox. It is hosted by celebrity chef Gordon Ramsay.

-----------------------------------------------------------------------------------

[b]EPISODE INFO[/b]
[b]Title[/b]: Break On Through
[b]Airdate[/b]: 2019-01-18
[b]Episode plot[/b]: Tension mounts when Chef Ramsay explains to the six remaining chefs that they will go through three extensive challenges to determine which five chefs receive a black jacket. Tune in to find out which chef will be sent home.

-----------------------------------------------------------------------------------

[b]SCREENSHOTS[/b]
(Click to enlarge)
[url=https://imgmak.com/image/KU0q][img]https://imgmak.com/images/2019/01/19/HappyRoboto22123.th.jpg[/img][/url] [url=https://imgmak.com/image/KU0t][img]https://imgmak.com/images/2019/01/19/HappyRoboto16656.th.jpg[/img][/url] [url=https://imgmak.com/image/KU02][img]https://imgmak.com/images/2019/01/19/HappyRoboto30711.th.jpg[/img][/url] [url=https://imgmak.com/image/KU0F][img]https://imgmak.com/images/2019/01/19/HappyRoboto28165.th.jpg[/img][/url] [url=https://imgmak.com/image/KU0i][img]https://imgmak.com/images/2019/01/19/HappyRoboto19248.th.jpg[/img][/url] [url=https://imgmak.com/image/KU0j][img]https://imgmak.com/images/2019/01/19/HappyRoboto29857.th.jpg[/img][/url]

-----------------------------------------------------------------------------------

[b]MEDIAINFO[/b]
Container = Matroska (mkv)
Duration = 00:43:12.078
Filesize = 351 MiB
--ViDEO
Codec info = AVC Main@L3.1 | V_MPEG4/ISO/AVC
Resolution = 992x558
Display AR = 1.778 | 16:9
Bitrate = 1 040 kb/s
Framerate = CFR 29.970
Color space = YUV
Chroma subsampling = 4:2:0
Encoder = x264 - core 148 r2579M 73ae2d1
--AUDiO
Codec info = AAC HE-AAC / LC | A_AAC
Channels = 2
Bitrate = 96.0 kb/s
Samplerate = 48.0 kHz / 24.0 kHz
Language = English ]]>
Blindspot.S04E10.720p.HDTV.x264-AVS[TGx] //glodls-to.prox1.info/torrent.php?id=9268419 //glodls-to.prox1.info/torrent.php?id=9268419 Sat, 19 Jan 2019 02:11:53 +0000 TV
[b]Blindspot.S04E10.720p.HDTV.x264-AVS[TGx][/b]
[url]https://www.imdb.com/title/tt4474344[/url]


Upload provided by TorrentGalaxy
Visit us @ [url]https://torrentgalaxy.org[/url]


[b]SERIES INFO[/b]
[b]Genre[/b]: Action Crime Drama Mystery
[b]Stars[/b]: Jaimie Alexander, Sullivan Stapleton, Audrey Esparza, Rob Brown, Marianne Jean-Baptiste, Ukweli Roach, Ashley Johnson, Archie Panjabi, Luke Mitchell, Michelle Hurd
[b]Series Plot[/b]: A mysterious tattooed woman who is found naked inside a travel bag in Times Square by the FBI, with no recollection of her own past or her own identity. They discover that her tattoos contain clues to crimes they will have to solve.

-----------------------------------------------------------------------------------

[b]EPISODE INFO[/b]
[b]Title[/b]: The Big Reveal
[b]Airdate[/b]: 2019-01-18
[b]Episode plot[/b]: Reade confronts Zapata, while the team follows a lead to a potential cure for Jane.

-----------------------------------------------------------------------------------

[b]SCREENSHOTS[/b]
(Click to enlarge)
[url=https://imgmak.com/image/KU0S][img]https://imgmak.com/images/2019/01/19/HappyRoboto8026.th.jpg[/img][/url] [url=https://imgmak.com/image/KU0Z][img]https://imgmak.com/images/2019/01/19/HappyRoboto26139.th.jpg[/img][/url] [url=https://imgmak.com/image/KU0c][img]https://imgmak.com/images/2019/01/19/HappyRoboto29127.th.jpg[/img][/url] [url=https://imgmak.com/image/KU0n][img]https://imgmak.com/images/2019/01/19/HappyRoboto5789.th.jpg[/img][/url] [url=https://imgmak.com/image/KU0r][img]https://imgmak.com/images/2019/01/19/HappyRoboto301.th.jpg[/img][/url] [url=https://imgmak.com/image/KU0B][img]https://imgmak.com/images/2019/01/19/HappyRoboto29315.th.jpg[/img][/url]

-----------------------------------------------------------------------------------

[b]MEDIAINFO[/b]
Container = Matroska (mkv)
Duration = 00:42:07.817
Filesize = 1 GiB
--ViDEO
Codec info = AVC High@L4.1 | V_MPEG4/ISO/AVC
Resolution = 1280x716
Display AR = 1.788 | 16:9
Bitrate = 3 020 kb/s
Framerate = CFR 23.976
Color space = YUV
Chroma subsampling = 4:2:0
Encoder = x264 - core 157 r2935 545de2f
--AUDiO
Codec info = AC-3 | A_AC3
Channels = 6
Bitrate = CBR 384 kb/s
Samplerate = 48.0 kHz
Language = English ]]>
Blindspot.S04E10.HDTV.x264-SVA[ettv] //glodls-to.prox1.info/torrent.php?id=9268418 //glodls-to.prox1.info/torrent.php?id=9268418 Sat, 19 Jan 2019 02:11:24 +0000 TV Et TV Shows


[url]https://www.ettv.be/home/[/url]

Blindspot.S04E10.HDTV.x264-SVA


[Format]: Matroska
[Duration]: 42mn 7s
[Resolution]: 720 x 404 pixels
[Display aspect ratio]: 16:9
[Frame rate mode]: Constant
[Frame rate]: 23.976 fps


[color=green][b]#ettv -> To avoid fakes, ALWAYS check that the torrent was added by ettv[/b][/color]




[color=green][b]To keep us going Support us by donating Bitcoin: 1KsLJXUQzuYnuFZpNp4zsvEXaarKa85ADD[/b][/color]

[b]Screens...[/b]

[url]https://extraimage.net/image/c5kK[/url]
[url][/url]
[url][/url]
[url][/url]
[url][/url]
[url][/url]
]]>
Blindspot.S04E10.720p.HDTV.x264-AVS[ettv] //glodls-to.prox1.info/torrent.php?id=9268417 //glodls-to.prox1.info/torrent.php?id=9268417 Sat, 19 Jan 2019 02:11:13 +0000 TV Et High-Definition TV Shows


[url]https://www.ettv.be/home/[/url]

Blindspot.S04E10.720p.HDTV.x264-AVS


[Format]: Matroska
[Duration]: 42mn 7s
[Resolution]: 1 280 x 716 pixels
[Display aspect ratio]: 16:9
[Frame rate mode]: Constant
[Frame rate]: 23.976 fps


[color=green][b]#EtHD -> To avoid fakes, ALWAYS check that the torrent was added by EtHD[/b][/color]




[color=green][b]To keep us going Support us by donating Bitcoin: 1KsLJXUQzuYnuFZpNp4zsvEXaarKa85ADD[/b][/color]

[b]Screens...[/b]

[url]https://extraimage.net/image/c5kz[/url]
[url]https://extraimage.net/image/c5k0[/url]
[url]https://extraimage.net/image/c5kJ[/url]
[url]https://extraimage.net/image/c5kZ[/url]
[url][/url]
[url][/url]
]]>
Blindspot.S04E10.HDTV.x264-SVA[TGx] //glodls-to.prox1.info/torrent.php?id=9268415 //glodls-to.prox1.info/torrent.php?id=9268415 Sat, 19 Jan 2019 02:09:56 +0000 TV
[b]Blindspot.S04E10.HDTV.x264-SVA[TGx][/b]
[url]https://www.imdb.com/title/tt4474344[/url]


Upload provided by TorrentGalaxy
Visit us @ [url]https://torrentgalaxy.org[/url]


[b]SERIES INFO[/b]
[b]Genre[/b]: Action Crime Drama Mystery
[b]Stars[/b]: Jaimie Alexander, Sullivan Stapleton, Audrey Esparza, Rob Brown, Marianne Jean-Baptiste, Ukweli Roach, Ashley Johnson, Archie Panjabi, Luke Mitchell, Michelle Hurd
[b]Series Plot[/b]: A mysterious tattooed woman who is found naked inside a travel bag in Times Square by the FBI, with no recollection of her own past or her own identity. They discover that her tattoos contain clues to crimes they will have to solve.

-----------------------------------------------------------------------------------

[b]EPISODE INFO[/b]
[b]Title[/b]: The Big Reveal
[b]Airdate[/b]: 2019-01-18
[b]Episode plot[/b]: Reade confronts Zapata, while the team follows a lead to a potential cure for Jane.

-----------------------------------------------------------------------------------

[b]SCREENSHOTS[/b]
(Click to enlarge)
[url=https://imgmak.com/image/KU0l][img]https://imgmak.com/images/2019/01/19/HappyRoboto9421.th.jpg[/img][/url] [url=https://imgmak.com/image/KU0V][img]https://imgmak.com/images/2019/01/19/HappyRoboto2047.th.jpg[/img][/url] [url=https://imgmak.com/image/KU0e][img]https://imgmak.com/images/2019/01/19/HappyRoboto8054.th.jpg[/img][/url] [url=https://imgmak.com/image/KU0g][img]https://imgmak.com/images/2019/01/19/HappyRoboto19646.th.jpg[/img][/url] [url=https://imgmak.com/image/KU0o][img]https://imgmak.com/images/2019/01/19/HappyRoboto18557.th.jpg[/img][/url] [url=https://imgmak.com/image/KU0N][img]https://imgmak.com/images/2019/01/19/HappyRoboto20060.th.jpg[/img][/url]

-----------------------------------------------------------------------------------

[b]MEDIAINFO[/b]
Container = Matroska (mkv)
Duration = 00:42:07.817
Filesize = 300 MiB
--ViDEO
Codec info = AVC High@L3.1 | V_MPEG4/ISO/AVC
Resolution = 720x404
Display AR = 1.782 | 16:9
Bitrate =
Framerate = CFR 23.976
Color space = YUV
Chroma subsampling = 4:2:0
Encoder = x264 - core 157 r2935 545de2f
--AUDiO
Codec info = AAC LC | A_AAC
Channels = 2
Bitrate =
Samplerate = 48.0 kHz
Language = English ]]>
Dynasty.2017.S02E10.HDTV.x264-SVA[TGx] //glodls-to.prox1.info/torrent.php?id=9268414 //glodls-to.prox1.info/torrent.php?id=9268414 Sat, 19 Jan 2019 02:09:04 +0000 TV
[b]Dynasty.2017.S02E10.HDTV.x264-SVA[TGx][/b]
[url]https://www.imdb.com/title/tt6128300[/url]


Upload provided by TorrentGalaxy
Visit us @ [url]https://torrentgalaxy.org[/url]


[b]SERIES INFO[/b]
[b]Genre[/b]: Drama Soap
[b]Stars[/b]: Alan Dale, Nathalie Kelley, Elizabeth Gillies, Sam Adegoke, Robert Christopher Riley, Rafael de La Fuente, James Mackay, Grant Show, Wakeema Hollis, Nicollette Sheridan
[b]Series Plot[/b]: The reboot follows two of America’s wealthiest families, the Carringtons and the Colbys, as they feud for control over their fortune and their children. The series will focus on Fallon Carrington, the daughter of billionaire Blake Carrington, and her soon-to-be stepmother, Cristal, a Hispanic woman marrying into this WASP family and America’s most powerful class.

-----------------------------------------------------------------------------------

[b]EPISODE INFO[/b]
[b]Title[/b]: A Champagne Mood
[b]Airdate[/b]: 2019-01-18
[b]Episode plot[/b]: In the wake of a horrific accident, Culhane desperately needs Fallon’s help and protection, while she needs to process the sheer weight of his lies. Meanwhile, as Blake shows no shame in using family to promote his own self-interest, Cristal is reluctant to reveal a big development.

-----------------------------------------------------------------------------------

[b]SCREENSHOTS[/b]
(Click to enlarge)
[url=https://imgmak.com/image/KU0Y][img]https://imgmak.com/images/2019/01/19/HappyRoboto8085.th.jpg[/img][/url] [url=https://imgmak.com/image/KU00][img]https://imgmak.com/images/2019/01/19/HappyRoboto31630.th.jpg[/img][/url] [url=https://imgmak.com/image/KU0A][img]https://imgmak.com/images/2019/01/19/HappyRoboto6444.th.jpg[/img][/url] [url=https://imgmak.com/image/KU0D][img]https://imgmak.com/images/2019/01/19/HappyRoboto32603.th.jpg[/img][/url] [url=https://imgmak.com/image/KU0f][img]https://imgmak.com/images/2019/01/19/HappyRoboto23672.th.jpg[/img][/url] [url=https://imgmak.com/image/KU0E][img]https://imgmak.com/images/2019/01/19/HappyRoboto6474.th.jpg[/img][/url]

-----------------------------------------------------------------------------------

[b]MEDIAINFO[/b]
Container = Matroska (mkv)
Duration = 00:41:51.593
Filesize = 253 MiB
--ViDEO
Codec info = AVC High@L3.1 | V_MPEG4/ISO/AVC
Resolution = 720x404
Display AR = 1.782 | 16:9
Bitrate =
Framerate = CFR 23.976
Color space = YUV
Chroma subsampling = 4:2:0
Encoder = x264 - core 157 r2935 545de2f
--AUDiO
Codec info = AAC LC | A_AAC
Channels = 2
Bitrate =
Samplerate = 48.0 kHz
Language = English ]]>
Dynasty.2017.S02E10.720p.HDTV.x264-SVA[TGx] //glodls-to.prox1.info/torrent.php?id=9268412 //glodls-to.prox1.info/torrent.php?id=9268412 Sat, 19 Jan 2019 02:08:48 +0000 TV
[b]Dynasty.2017.S02E10.720p.HDTV.x264-SVA[TGx][/b]
[url]https://www.imdb.com/title/tt6128300[/url]


Upload provided by TorrentGalaxy
Visit us @ [url]https://torrentgalaxy.org[/url]


[b]SERIES INFO[/b]
[b]Genre[/b]: Drama Soap
[b]Stars[/b]: Alan Dale, Nathalie Kelley, Elizabeth Gillies, Sam Adegoke, Robert Christopher Riley, Rafael de La Fuente, James Mackay, Grant Show, Wakeema Hollis, Nicollette Sheridan
[b]Series Plot[/b]: The reboot follows two of America’s wealthiest families, the Carringtons and the Colbys, as they feud for control over their fortune and their children. The series will focus on Fallon Carrington, the daughter of billionaire Blake Carrington, and her soon-to-be stepmother, Cristal, a Hispanic woman marrying into this WASP family and America’s most powerful class.

-----------------------------------------------------------------------------------

[b]EPISODE INFO[/b]
[b]Title[/b]: A Champagne Mood
[b]Airdate[/b]: 2019-01-18
[b]Episode plot[/b]: In the wake of a horrific accident, Culhane desperately needs Fallon’s help and protection, while she needs to process the sheer weight of his lies. Meanwhile, as Blake shows no shame in using family to promote his own self-interest, Cristal is reluctant to reveal a big development.

-----------------------------------------------------------------------------------

[b]SCREENSHOTS[/b]
(Click to enlarge)
[url=https://imgmak.com/image/KU0v][img]https://imgmak.com/images/2019/01/19/HappyRoboto31256.th.jpg[/img][/url] [url=https://imgmak.com/image/KU0y][img]https://imgmak.com/images/2019/01/19/HappyRoboto27938.th.jpg[/img][/url] [url=https://imgmak.com/image/KU06][img]https://imgmak.com/images/2019/01/19/HappyRoboto17488.th.jpg[/img][/url] [url=https://imgmak.com/image/KU09][img]https://imgmak.com/images/2019/01/19/HappyRoboto7939.th.jpg[/img][/url] [url=https://imgmak.com/image/KU0M][img]https://imgmak.com/images/2019/01/19/HappyRoboto19361.th.jpg[/img][/url] [url=https://imgmak.com/image/KU0O][img]https://imgmak.com/images/2019/01/19/HappyRoboto13337.th.jpg[/img][/url]

-----------------------------------------------------------------------------------

[b]MEDIAINFO[/b]
Container = Matroska (mkv)
Duration = 00:41:51.593
Filesize = 954 MiB
--ViDEO
Codec info = AVC High@L4.1 | V_MPEG4/ISO/AVC
Resolution = 1280x720
Display AR = 1.778 | 16:9
Bitrate = 2 737 kb/s
Framerate = CFR 23.976
Color space = YUV
Chroma subsampling = 4:2:0
Encoder = x264 - core 157 r2935 545de2f
--AUDiO
Codec info = AC-3 | A_AC3
Channels = 6
Bitrate = CBR 384 kb/s
Samplerate = 48.0 kHz
Language = English ]]>
Hells.Kitchen.US.S18E12.WEB.x264-TBS[ettv] //glodls-to.prox1.info/torrent.php?id=9268411 //glodls-to.prox1.info/torrent.php?id=9268411 Sat, 19 Jan 2019 02:07:19 +0000 TV Et TV Shows


[url]https://www.ettv.be/home/[/url]

Hells.Kitchen.US.S18E12.WEB.x264-TBS


[Format]: Matroska
[Duration]: 43mn 12s
[Resolution]: 992 x 558 pixels
[Display aspect ratio]: 16:9
[Frame rate mode]: Constant
[Frame rate]: 29.970 fps


[color=green][b]#ettv -> To avoid fakes, ALWAYS check that the torrent was added by ettv[/b][/color]




[color=green][b]To keep us going Support us by donating Bitcoin: 1KsLJXUQzuYnuFZpNp4zsvEXaarKa85ADD[/b][/color]

[b]Screens...[/b]

[url]https://extraimage.net/image/c5kb[/url]
[url][/url]
[url][/url]
[url][/url]
[url][/url]
[url][/url]
]]>
Fresh.Off.the.Boat.S05E11.720p.HDTV.x265-MiNX[TGx] //glodls-to.prox1.info/torrent.php?id=9268409 //glodls-to.prox1.info/torrent.php?id=9268409 Sat, 19 Jan 2019 02:06:32 +0000 TV
[b]Fresh.Off.the.Boat.S05E11.720p.HDTV.x265-MiNX[TGx][/b]
[url]https://www.imdb.com/title/tt3551096[/url]


Upload provided by TorrentGalaxy
Visit us @ [url]https://torrentgalaxy.org[/url]


[b]SERIES INFO[/b]
[b]Genre[/b]: Comedy Family
[b]Stars[/b]: Randall Park, Constance Wu, Ian Chen, Hudson Yang, Forrest Wheeler, Chelsey Crisp, Lucille Soong, Ray Wise, Luna Blaise, Rachel Cannon
[b]Series Plot[/b]: Loosely based on the life of Eddie Huang during the mid-to-late 1990s, an Asian-American family decides to move to Orlando, Florida from Washington D.C. in order to embrace the "American Dream." However, the family faces many obstacles as they try to assimilate with the new culture that surrounds them.

-----------------------------------------------------------------------------------

[b]EPISODE INFO[/b]
[b]Title[/b]: Driver’s Eddie 2: Orlando Drift
[b]Airdate[/b]: 2019-01-18
[b]Episode plot[/b]: Eddie finally gets his driver’s license- but instead of freedom, he finds an endless list of errands to run for his mom.

-----------------------------------------------------------------------------------

[b]SCREENSHOTS[/b]
(Click to enlarge)
[url=https://imgmak.com/image/KU0m][img]https://imgmak.com/images/2019/01/19/HappyRoboto16167.th.jpg[/img][/url] [url=https://imgmak.com/image/KU0u][img]https://imgmak.com/images/2019/01/19/HappyRoboto7756.th.jpg[/img][/url] [url=https://imgmak.com/image/KU05][img]https://imgmak.com/images/2019/01/19/HappyRoboto28240.th.jpg[/img][/url] [url=https://imgmak.com/image/KU01][img]https://imgmak.com/images/2019/01/19/HappyRoboto27299.th.jpg[/img][/url] [url=https://imgmak.com/image/KU0U][img]https://imgmak.com/images/2019/01/19/HappyRoboto13461.th.jpg[/img][/url] [url=https://imgmak.com/image/KU03][img]https://imgmak.com/images/2019/01/19/HappyRoboto18962.th.jpg[/img][/url]

-----------------------------------------------------------------------------------

[b]MEDIAINFO[/b]
Container = Matroska (mkv)
Duration = 00:21:05.994
Filesize = 120 MiB
--ViDEO
Codec info = HEVC Main@L3.1@Main | V_MPEGH/ISO/HEVC
Resolution = 1280x720
Display AR = 1.778 | 16:9
Bitrate =
Framerate = CFR 23.976
Color space = YUV
Chroma subsampling = 4:2:0
Encoder = x265 - 0.0:[Linux][GCC 6.3.0][64 bit] 8bit+10bit+12bit
--AUDiO
Codec info = AAC LC | A_AAC
Channels = 2
Bitrate =
Samplerate = 48.0 kHz
Language = English ]]>
MacGyver.2016.S03E13.720p.HDTV.x264-AVS[TGx] //glodls-to.prox1.info/torrent.php?id=9268408 //glodls-to.prox1.info/torrent.php?id=9268408 Sat, 19 Jan 2019 02:06:03 +0000 TV
[b]MacGyver.2016.S03E13.720p.HDTV.x264-AVS[TGx][/b]
[url]https://www.imdb.com/title/tt1399045[/url]


Upload provided by TorrentGalaxy
Visit us @ [url]https://torrentgalaxy.org[/url]


[b]SERIES INFO[/b]
[b]Genre[/b]: Action Adventure Drama
[b]Stars[/b]: Lucas Till, George Eads, Justin Hires, Sandrine Holt, Tristin Mays, Meredith Eaton, Isabel Lucas
[b]Series Plot[/b]: Young Angus "Mac" MacGyver works for a clandestine organization within the U.S. government, relying on his unconventional problem-solving skills to save lives.

-----------------------------------------------------------------------------------

[b]EPISODE INFO[/b]
[b]Title[/b]: Wilderness + Training + Survival
[b]Airdate[/b]: 2019-01-18
[b]Episode plot[/b]: null

-----------------------------------------------------------------------------------

[b]SCREENSHOTS[/b]
(Click to enlarge)
[url=https://imgmak.com/image/KU0p][img]https://imgmak.com/images/2019/01/19/HappyRoboto14179.th.jpg[/img][/url] [url=https://imgmak.com/image/KU0R][img]https://imgmak.com/images/2019/01/19/HappyRoboto9714.th.jpg[/img][/url] [url=https://imgmak.com/image/KU0b][img]https://imgmak.com/images/2019/01/19/HappyRoboto20910.th.jpg[/img][/url] [url=https://imgmak.com/image/KU0x][img]https://imgmak.com/images/2019/01/19/HappyRoboto30624.th.jpg[/img][/url] [url=https://imgmak.com/image/KU0z][img]https://imgmak.com/images/2019/01/19/HappyRoboto10979.th.jpg[/img][/url] [url=https://imgmak.com/image/KU07][img]https://imgmak.com/images/2019/01/19/HappyRoboto13098.th.jpg[/img][/url]

-----------------------------------------------------------------------------------

[b]MEDIAINFO[/b]
Container = Matroska (mkv)
Duration = 00:42:34.177
Filesize = 1 GiB
--ViDEO
Codec info = AVC High@L4.1 | V_MPEG4/ISO/AVC
Resolution = 1280x720
Display AR = 1.778 | 16:9
Bitrate = 4 329 kb/s
Framerate = CFR 23.976
Color space = YUV
Chroma subsampling = 4:2:0
Encoder = x264 - core 157 r2935 545de2f
--AUDiO
Codec info = AC-3 | A_AC3
Channels = 6
Bitrate = CBR 384 kb/s
Samplerate = 48.0 kHz
Language = English ]]>
Dynasty.2017.S02E10.720p.HDTV.x264-SVA[ettv] //glodls-to.prox1.info/torrent.php?id=9268407 //glodls-to.prox1.info/torrent.php?id=9268407 Sat, 19 Jan 2019 02:05:15 +0000 TV Et High-Definition TV Shows


[url]https://www.ettv.be/home/[/url]

Dynasty.2017.S02E10.720p.HDTV.x264-SVA


[Format]: Matroska
[Duration]: 41mn 51s
[Resolution]: 1 280 x 720 pixels
[Display aspect ratio]: 16:9
[Frame rate mode]: Constant
[Frame rate]: 23.976 fps


[color=green][b]#EtHD -> To avoid fakes, ALWAYS check that the torrent was added by EtHD[/b][/color]




[color=green][b]To keep us going Support us by donating Bitcoin: 1KsLJXUQzuYnuFZpNp4zsvEXaarKa85ADD[/b][/color]

[b]Screens...[/b]

[url]https://extraimage.net/image/c5ki[/url]
[url]https://extraimage.net/image/c5kl[/url]
[url]https://extraimage.net/image/c5kI[/url]
[url]https://extraimage.net/image/c5kd[/url]
[url][/url]
[url][/url]
]]>
MacGyver.2016.S03E13.HDTV.x264-SVA[TGx] //glodls-to.prox1.info/torrent.php?id=9268405 //glodls-to.prox1.info/torrent.php?id=9268405 Sat, 19 Jan 2019 02:04:21 +0000 TV
[b]MacGyver.2016.S03E13.HDTV.x264-SVA[TGx][/b]
[url]https://www.imdb.com/title/tt1399045[/url]


Upload provided by TorrentGalaxy
Visit us @ [url]https://torrentgalaxy.org[/url]


[b]SERIES INFO[/b]
[b]Genre[/b]: Action Adventure Drama
[b]Stars[/b]: Lucas Till, George Eads, Justin Hires, Sandrine Holt, Tristin Mays, Meredith Eaton, Isabel Lucas
[b]Series Plot[/b]: Young Angus "Mac" MacGyver works for a clandestine organization within the U.S. government, relying on his unconventional problem-solving skills to save lives.

-----------------------------------------------------------------------------------

[b]EPISODE INFO[/b]
[b]Title[/b]: Wilderness + Training + Survival
[b]Airdate[/b]: 2019-01-18
[b]Episode plot[/b]: null

-----------------------------------------------------------------------------------

[b]SCREENSHOTS[/b]
(Click to enlarge)
[url=https://imgmak.com/image/KUY4][img]https://imgmak.com/images/2019/01/19/HappyRoboto22435.th.jpg[/img][/url] [url=https://imgmak.com/image/KUY8][img]https://imgmak.com/images/2019/01/19/HappyRoboto17621.th.jpg[/img][/url] [url=https://imgmak.com/image/KUYL][img]https://imgmak.com/images/2019/01/19/HappyRoboto14974.th.jpg[/img][/url] [url=https://imgmak.com/image/KUYX][img]https://imgmak.com/images/2019/01/19/HappyRoboto28945.th.jpg[/img][/url] [url=https://imgmak.com/image/KU0C][img]https://imgmak.com/images/2019/01/19/HappyRoboto5608.th.jpg[/img][/url] [url=https://imgmak.com/image/KU0K][img]https://imgmak.com/images/2019/01/19/HappyRoboto969.th.jpg[/img][/url]

-----------------------------------------------------------------------------------

[b]MEDIAINFO[/b]
Container = Matroska (mkv)
Duration = 00:42:34.177
Filesize = 449 MiB
--ViDEO
Codec info = AVC High@L3.1 | V_MPEG4/ISO/AVC
Resolution = 720x404
Display AR = 1.782 | 16:9
Bitrate =
Framerate = CFR 23.976
Color space = YUV
Chroma subsampling = 4:2:0
Encoder = x264 - core 157 r2935 545de2f
--AUDiO
Codec info = AAC LC | A_AAC
Channels = 2
Bitrate =
Samplerate = 48.0 kHz
Language = English ]]>
Bumblebee 2018 HC HDRip XviD AC3 With Sample LLG //glodls-to.prox1.info/torrent.php?id=9268404 //glodls-to.prox1.info/torrent.php?id=9268404 Sat, 19 Jan 2019 02:04:19 +0000 Movies [center]
[b]

******************************Thumbnail:**********************

[url=https://allpagal.info/5201.htm][img]https://allpagal.info/005201.png[/img][/url]

******************************Screenshots:********************

[url=https://allpagal.info/5201.htm]Screenshot 1 [/url]

[url=https://allpagal.info/5202.htm]Screenshot 2 [/url]

[url=https://allpagal.info/5203.htm]Screenshot 3 [/url]

[url=https://allpagal.info/5204.htm]Screenshot 4 [/url]

[url=https://allpagal.info/5205.htm]Screenshot 5 [/url]

[url=https://allpagal.info/5206.htm]Screenshot 6 [/url]

[url=https://allpagal.info/5207.htm]Screenshot 7 [/url]

[url=https://allpagal.info/5208.htm]Screenshot 8 [/url]

[url=https://allpagal.info/5209.htm]Screenshot 9 [/url]

[url=https://allpagal.info/5210.htm]Screenshot 0 [/url]


******************************************************

Bumblebee.2018.HC.HDRip.XviD.AC3.With.Sample.LLG.mp4
Format : MPEG-4
Format profile : Base Media
Codec ID : isom (isom/iso2/avc1/mp41)
File size : 888 MiB
Duration : 1 h 54 min
Overall bit rate mode : Variable
Overall bit rate : 1 089 kb/s
Writing application : Lavf57.83.100

Video
ID : 1
Format : AVC
Format/Info : Advanced Video Codec
Format profile : Main@L3
Format settings : CABAC / 1 Ref Frames
Format settings, CABAC : Yes
Format settings, RefFrames : 1 frame
Codec ID : avc1
Codec ID/Info : Advanced Video Coding
Duration : 1 h 54 min
Bit rate mode : Variable
Bit rate : 893 kb/s
Maximum bit rate : 2 700 kb/s
Width : 720 pixels
Height : 400 pixels
Display aspect ratio : 16:9
Frame rate mode : Constant
Frame rate : 24.000 FPS
Color space : YUV
Chroma subsampling : 4:2:0
Bit depth : 8 bits
Scan type : Progressive
Bits/(Pixel*Frame) : 0.129
Stream size : 728 MiB (82%)
Codec configuration box : avcC

Audio
ID : 2
Format : AC-3
Format/Info : Audio Coding 3
Commercial name : Dolby Digital
Codec ID : ac-3
Duration : 1 h 54 min
Bit rate mode : Constant
Bit rate : 192 kb/s
Channel(s) : 2 channels
Channel layout : L R
Sampling rate : 48.0 kHz
Frame rate : 31.250 FPS (1536 SPF)
Bit depth : 16 bits
Compression mode : Lossy
Stream size : 157 MiB (18%)
Title : T2_Audio - English
Service kind : Complete Main
Default : Yes
Alternate group : 1



********************************************************
[/b]
[/center]
[/quote] ]]>
Dynasty.2017.S02E10.HDTV.x264-SVA[ettv] //glodls-to.prox1.info/torrent.php?id=9268403 //glodls-to.prox1.info/torrent.php?id=9268403 Sat, 19 Jan 2019 02:03:29 +0000 TV Et TV Shows


[url]https://www.ettv.be/home/[/url]

Dynasty.2017.S02E10.HDTV.x264-SVA


[Format]: Matroska
[Duration]: 41mn 51s
[Resolution]: 720 x 404 pixels
[Display aspect ratio]: 16:9
[Frame rate mode]: Constant
[Frame rate]: 23.976 fps


[color=green][b]#ettv -> To avoid fakes, ALWAYS check that the torrent was added by ettv[/b][/color]




[color=green][b]To keep us going Support us by donating Bitcoin: 1KsLJXUQzuYnuFZpNp4zsvEXaarKa85ADD[/b][/color]

[b]Screens...[/b]

[url]https://extraimage.net/image/c5kq[/url]
[url][/url]
[url][/url]
[url][/url]
[url][/url]
[url][/url]
]]>
MacGyver.2016.S03E13.HDTV.x264-SVA[ettv] //glodls-to.prox1.info/torrent.php?id=9268402 //glodls-to.prox1.info/torrent.php?id=9268402 Sat, 19 Jan 2019 02:03:14 +0000 TV Et TV Shows


[url]https://www.ettv.be/home/[/url]

MacGyver.2016.S03E13.HDTV.x264-SVA


[Format]: Matroska
[Duration]: 42mn 34s
[Resolution]: 720 x 404 pixels
[Display aspect ratio]: 16:9
[Frame rate mode]: Constant
[Frame rate]: 23.976 fps


[color=green][b]#ettv -> To avoid fakes, ALWAYS check that the torrent was added by ettv[/b][/color]




[color=green][b]To keep us going Support us by donating Bitcoin: 1KsLJXUQzuYnuFZpNp4zsvEXaarKa85ADD[/b][/color]

[b]Screens...[/b]

[url]https://extraimage.net/image/c5kS[/url]
[url][/url]
[url][/url]
[url][/url]
[url][/url]
[url][/url]
]]>
Americas Test Kitchen S19E02 Chocolate Delights HDTV x264-W4F //glodls-to.prox1.info/torrent.php?id=9268376 //glodls-to.prox1.info/torrent.php?id=9268376 Sat, 19 Jan 2019 02:01:55 +0000 TV http://www.tvrage.com/schedule.php?show_yesterday=1. ]]> The Blacklist S06E04 HDTV x264-BATV //glodls-to.prox1.info/torrent.php?id=9268375 //glodls-to.prox1.info/torrent.php?id=9268375 Sat, 19 Jan 2019 02:01:51 +0000 TV http://www.tvrage.com/schedule.php?show_yesterday=1. ]]> Bike World S01E02 720p WEB h264-ASCENDANCE //glodls-to.prox1.info/torrent.php?id=9268374 //glodls-to.prox1.info/torrent.php?id=9268374 Sat, 19 Jan 2019 02:01:49 +0000 TV http://www.tvrage.com/schedule.php?show_yesterday=1. ]]> Supershoppers S05E01 HDTV x264-PLUTONiUM //glodls-to.prox1.info/torrent.php?id=9268373 //glodls-to.prox1.info/torrent.php?id=9268373 Sat, 19 Jan 2019 02:01:44 +0000 TV http://www.tvrage.com/schedule.php?show_yesterday=1. ]]> Americas Test Kitchen S19E02 Chocolate Delights 480p x264-mSD //glodls-to.prox1.info/torrent.php?id=9268372 //glodls-to.prox1.info/torrent.php?id=9268372 Sat, 19 Jan 2019 02:01:40 +0000 TV http://www.tvrage.com/schedule.php?show_yesterday=1. ]]> The Blacklist S06E04 720p HDTV x264-BATV //glodls-to.prox1.info/torrent.php?id=9268371 //glodls-to.prox1.info/torrent.php?id=9268371 Sat, 19 Jan 2019 02:01:30 +0000 TV http://www.tvrage.com/schedule.php?show_yesterday=1. ]]> Bike World S01E04 720p WEB h264-ASCENDANCE //glodls-to.prox1.info/torrent.php?id=9268370 //glodls-to.prox1.info/torrent.php?id=9268370 Sat, 19 Jan 2019 02:01:28 +0000 TV http://www.tvrage.com/schedule.php?show_yesterday=1. ]]> Bike World S01E05 720p WEB h264-ASCENDANCE //glodls-to.prox1.info/torrent.php?id=9268369 //glodls-to.prox1.info/torrent.php?id=9268369 Sat, 19 Jan 2019 02:01:22 +0000 TV http://www.tvrage.com/schedule.php?show_yesterday=1. ]]> Bike World S01E06 720p WEB h264-ASCENDANCE //glodls-to.prox1.info/torrent.php?id=9268368 //glodls-to.prox1.info/torrent.php?id=9268368 Sat, 19 Jan 2019 02:01:20 +0000 TV http://www.tvrage.com/schedule.php?show_yesterday=1. ]]> Bike World S01E07 720p WEB h264-ASCENDANCE //glodls-to.prox1.info/torrent.php?id=9268367 //glodls-to.prox1.info/torrent.php?id=9268367 Sat, 19 Jan 2019 02:01:16 +0000 TV http://www.tvrage.com/schedule.php?show_yesterday=1. ]]> MacGyver.2016.S03E13.720p.HDTV.x264-AVS[ettv] //glodls-to.prox1.info/torrent.php?id=9268366 //glodls-to.prox1.info/torrent.php?id=9268366 Sat, 19 Jan 2019 02:01:16 +0000 TV Et High-Definition TV Shows


[url]https://www.ettv.be/home/[/url]

MacGyver.2016.S03E13.720p.HDTV.x264-AVS


[Format]: Matroska
[Duration]: 42mn 34s
[Resolution]: 1 280 x 720 pixels
[Display aspect ratio]: 16:9
[Frame rate mode]: Constant
[Frame rate]: 23.976 fps


[color=green][b]#EtHD -> To avoid fakes, ALWAYS check that the torrent was added by EtHD[/b][/color]




[color=green][b]To keep us going Support us by donating Bitcoin: 1KsLJXUQzuYnuFZpNp4zsvEXaarKa85ADD[/b][/color]

[b]Screens...[/b]

[url]https://extraimage.net/image/c5kc[/url]
[url]https://extraimage.net/image/c5k1[/url]
[url]https://extraimage.net/image/c5kE[/url]
[url]https://extraimage.net/image/c5kO[/url]
[url][/url]
[url][/url]
]]>